<?xml version="1.0" standalone="no"?>
<!DOCTYPE svg PUBLIC "-//W3C//DTD SVG 1.1//EN" "http://www.w3.org/Graphics/SVG/1.1/DTD/svg11.dtd" >
<svg xmlns="http://www.w3.org/2000/svg">
<metadata>Generated by IcoMoon</metadata>
<defs>
<font id="Local-Icons" horiz-adv-x="1024">
<font-face units-per-em="1024" ascent="960" descent="-64" />
<missing-glyph horiz-adv-x="1024" />
<glyph unicode="&#x20;" horiz-adv-x="512" d="" />
<glyph unicode="&#xe900;" glyph-name="arrow-down" d="M20.031 758.285c24.84 22.356 63.099 20.342 85.455-4.498l373.933-415.481 373.932 415.481c22.356 24.84 60.615 26.853 85.452 4.498 24.846-22.356 26.857-60.615 4.496-85.454l-418.904-465.455c-11.475-12.751-27.823-20.030-44.976-20.030s-33.502 7.28-44.977 20.030l-418.909 465.455c-22.356 24.839-20.342 63.099 4.498 85.454z" />
<glyph unicode="&#xe901;" glyph-name="arrow-down-bold" d="M37.49 730.51c49.987 49.987 131.032 49.987 181.020 0l293.49-293.491 293.49 293.491c49.988 49.987 131.032 49.987 181.020 0s49.987-131.032 0-181.020l-384-384c-49.988-49.987-131.032-49.987-181.020 0l-384 384c-49.987 49.988-49.987 131.033 0 181.020z" />
<glyph unicode="&#xe902;" glyph-name="arrow-left" d="M690.859 899.517l-458.129-420.276c-28.113-25.79-28.113-67.604 0-93.395l458.129-420.278c28.113-25.786 73.693-25.786 101.806 0 28.116 25.792 28.116 67.61 0 93.395l-407.226 373.58 407.226 373.579c28.116 25.79 28.116 67.604 0 93.394-28.113 25.79-73.693 25.79-101.806 0z" />
<glyph unicode="&#xe903;" glyph-name="arrow-right" d="M314.892 940.657l458.129-420.276c28.113-25.79 28.113-67.604 0-93.395l-458.129-420.273c-28.113-25.792-73.694-25.792-101.807 0-28.113 25.786-28.113 67.603 0 93.395l407.226 373.576-407.226 373.578c-28.113 25.79-28.113 67.604 0 93.395s73.693 25.79 101.807 0z" />
<glyph unicode="&#xe904;" glyph-name="box" d="M522.92-64c-5.329 0-10.664 0-15.998 0-0.801 0.531-1.336 1.331-2.402 1.862-148.532 60.691-297.066 121.647-445.865 182.602-22.134 9.048-27.2 16.235-27.2 39.661 0 190.585 0 381.171 0 571.757 0 22.892 5.333 30.611 26.133 39.129 146.667 60.157 293.333 120.048 439.732 180.471 12.269 5.057 23.468 5.057 35.468 0 146.935-60.423 294.135-120.846 441.335-181.003 18.399-7.453 24.264-16.503 24.264-36.733 0-191.917 0-383.832 0-575.752 0-19.963-6.13-29.012-24.264-36.729-115.465-47.383-230.935-94.497-346.401-142.145-35.202-14.108-69.865-28.746-104.802-43.12zM934.386 687.697c-3.733-1.331-6.665-2.129-9.332-3.194-123.732-50.841-247.464-101.415-371.2-151.99-6.4-2.662-6.931-6.388-6.931-11.978 0-165.3 0-330.597 0-495.898 0-2.658 0.265-5.585 0.531-9.048 3.468 1.331 5.869 2.397 8.266 3.463 122.936 50.306 245.602 100.883 368.533 150.924 7.466 3.193 10.403 6.651 10.403 14.904-0.27 163.705-0.27 327.404-0.27 490.84 0 3.726 0 7.453 0 11.978zM302.921 603.317c0-5.057 0-8.518 0-12.244 0-40.726 0-81.718 0-122.444 0-5.855-0.8-11.976-2.933-17.566-5.6-14.373-20.8-22.095-35.733-18.902-14.666 2.928-25.067 15.704-25.067 31.679-0.267 51.904-0.267 103.543 0 155.449 0 7.985-2.667 11.446-9.867 14.374-37.333 14.906-74.4 30.345-111.467 45.517-6.933 2.928-13.867 5.59-21.867 9.050-0.267-4.525-0.533-7.453-0.533-10.381 0-164.766 0-329.534-0.267-494.031 0-6.921 1.6-10.384 8.534-13.047 117.333-47.909 234.666-96.088 352-144.268 8.8-3.463 17.599-6.921 26.666-10.65 0.265 2.662 0.265 3.994 0.265 5.325 0 166.898 0 334.057 0.27 500.954 0 6.122-2.402 8.518-7.736 10.647-43.199 17.301-86.133 35.136-129.066 52.704-13.867 5.856-27.734 11.712-43.2 17.834zM884.787 737.473c-3.733 1.597-6.135 2.662-8.532 3.726-53.066 21.827-106.133 43.388-159.199 65.481-6.4 2.662-11.469 2.662-17.869-0.266-106.934-46.848-214.132-93.43-321.333-140.012-9.067-3.993-18.4-7.985-28.533-12.777 4.266-1.863 6.933-3.194 9.6-4.525 48.8-19.964 97.6-39.928 146.399-60.157 6.935-2.928 12.8-2.662 19.735 0 116.531 47.912 233.332 95.825 349.864 143.738 3.202 1.597 6.135 3.194 9.868 4.791zM145.055 737.739c4.533-2.129 7.466-3.461 10.4-4.791 33.867-13.841 67.467-27.417 101.334-41.79 6.933-2.928 12.8-2.662 19.733 0.266 86.666 38.064 173.333 75.595 259.999 113.393 29.068 12.777 58.135 25.287 89.069 38.863-4.534 2.129-7.471 3.46-10.403 4.791-29.068 11.978-58.401 23.69-87.464 36.201-8.536 3.726-15.737 3.726-24.534 0.266-52.001-21.827-104.268-42.855-156.534-64.416-66.667-27.417-133.334-54.568-201.6-82.782z" />
<glyph unicode="&#xe905;" glyph-name="cart" d="M1024 580.987h-173.885l-182.677 316.331c-9.062 15.714-28.719 20.844-43.906 11.396-15.155-9.448-20.061-29.869-10.971-45.616l162.918-282.111h-526.961l162.917 282.113c9.094 15.747 4.189 36.168-10.968 45.616-15.219 9.448-34.812 4.318-43.906-11.396l-182.678-316.331h-173.884v-66.494h69.453l81.296-450.551c8.499-47.178 48.187-81.399 94.376-81.399h533.747c46.187 0 85.876 34.22 94.343 81.366l81.324 450.584h69.46c0 0 0 66.492 0 66.492v0zM810.31 76.148c-2.811-15.714-16.030-27.113-31.437-27.113h-533.747c-15.407 0-28.625 11.399-31.468 27.145l-79.11 438.314h754.903l-79.141-438.347z" />
<glyph unicode="&#xe906;" glyph-name="check" d="M1007.337 801.116c22.215-22.217 22.215-58.237 0-80.453l-625.777-625.777c-22.217-22.215-58.237-22.215-80.453 0l-284.444 284.444c-22.216 22.216-22.216 58.236 0 80.453s58.236 22.216 80.453 0l244.218-244.219 585.552 585.552c22.215 22.216 58.237 22.216 80.452 0z" />
<glyph unicode="&#xe907;" glyph-name="close" d="M1023.898 909.135c1.069-13.928-6.17-25.714-16.89-36.16-76.403-76.338-152.8-152.676-229.203-229.014-61.382-61.338-123.040-122.945-184.429-184.283-11.795-11.786-11.795-12.053-0.268-23.571 137.523-137.407 274.771-274.552 412.287-411.692 11.795-11.782 19.034-24.371 18.502-41.517-0.538-19.014-9.12-32.947-25.734-40.979-16.89-8.307-34.317-8.038-50.4 2.944-4.826 3.482-9.114 7.77-13.402 12.058-136.179 136.064-272.358 272.134-408.539 408.205-2.681 2.678-4.826 6.161-8.042 7.5s-8.042 1.34-11.259 0c-3.217-1.339-5.361-4.821-8.042-7.5-136.983-137.139-274.235-274.278-411.486-411.155-18.497-18.483-39.406-22.765-60.047-12.589-27.879 13.926-35.653 49.824-16.084 74.195 3.217 3.75 6.702 7.232 10.455 10.982 135.375 135.533 271.018 270.797 406.393 406.065 2.144 2.143 4.020 4.554 6.433 6.428 7.774 6.161 6.702 12.054-0.268 17.946-2.68 2.143-4.825 4.821-7.238 6.964-135.911 136.069-271.822 271.87-408.001 407.671-11.527 11.518-18.765 23.571-18.229 40.446 0.536 20.357 9.919 34.821 27.611 42.856 17.693 8.303 35.385 6.428 50.933-5.893 4.289-3.214 7.774-7.232 11.527-10.982 135.911-135.801 271.822-271.603 408.001-407.672 2.681-2.678 4.826-6.16 8.042-7.5s8.042-1.34 11.259 0c3.217 1.34 5.361 4.821 8.042 7.5 136.98 137.141 273.966 273.746 410.683 410.618 11.795 11.785 24.659 19.285 41.549 18.482 26.81-1.339 45.843-21.428 45.843-50.356z" />
<glyph unicode="&#xe908;" glyph-name="help" d="M483.614 958.234c20.173 0 40.347 0 60.521 0 2.522-0.504 4.791-1.261 7.313-1.513 30.26-5.296 61.529-7.061 90.784-16.139 190.89-58.756 307.146-186.859 347.745-383.049 3.53-17.4 5.039-35.556 7.314-53.208 0-20.174 0-40.348 0-60.522-0.507-2.522-1.261-4.791-1.514-7.313-8.575-106.163-47.158-199.719-117.011-279.909-74.892-86.242-168.955-139.453-281.422-159.372-17.651-3.029-35.303-5.045-52.955-7.314-20.174 0-40.348 0-60.521 0-13.87 1.762-27.991 3.277-41.861 5.546-123.060 19.418-224.937 76.66-302.859 173.746-96.834 120.288-128.103 257.973-97.086 409.276 38.582 188.121 198.712 341.189 387.588 372.206 17.904 2.774 36.060 5.043 53.965 7.565zM98.295 474.316c-0.504-229.731 185.851-416.589 415.327-416.842 228.972-0.248 414.822 185.349 415.83 415.581 1.008 229.477-185.091 416.588-415.074 417.345-228.972 0.757-415.579-185.851-416.084-416.084zM502.047 716.905c31.522-0.252 56.739-4.287 80.442-15.635 57.495-27.234 76.913-86.495 46.651-142.477-13.366-24.461-32.278-43.878-53.965-61.278-5.546-4.539-11.094-9.079-16.39-14.122-14.121-13.113-21.182-29.504-21.939-48.669-0.252-5.547-0.252-11.348-0.252-16.894-0.252-15.635-7.061-24.21-22.191-26.985-7.061-1.261-14.374-1.509-21.434-1.008-18.661 1.514-26.226 9.582-27.991 27.993-4.287 49.172 11.095 89.52 51.947 119.528 12.861 9.331 24.461 20.678 35.304 32.53 10.339 11.6 13.87 26.226 10.087 41.608-4.539 18.157-20.678 30.009-45.139 32.278-29.252 3.026-53.713-4.287-70.356-31.521-10.591-17.652-23.2-20.931-40.852-14.121-16.392 6.304-24.965 20.678-22.191 39.087 3.53 25.973 19.669 43.878 40.599 57.495 24.965 16.643 53.46 22.191 77.669 22.191zM548.415 296.788c0.252-26.985-22.191-49.68-48.921-49.427-25.973 0.253-47.66 21.941-47.912 48.419-0.252 27.233 20.93 49.421 47.408 49.675 26.982 0.253 49.174-21.687 49.426-48.667z" />
<glyph unicode="&#xe909;" glyph-name="icon-1" d="M519.295 898.56c18.844-9.422 37.452-19.080 56.531-28.266 116.363-56.297 232.962-112.358 349.559-168.184 9.187-4.475 12.956-10.127 12.956-20.492-0.236-156.406-0.236-312.576 0-468.984 0-10.363-4.004-16.017-12.956-20.492-133.556-64.070-266.879-128.375-400.202-192.915-7.537-3.77-13.898-3.535-21.67 0-133.087 64.305-266.174 128.61-399.496 192.444-9.893 4.71-13.898 10.6-13.898 21.67 0.236 155.701 0.236 311.4 0 467.335 0 10.836 3.769 16.959 13.662 21.67 132.144 63.599 264.524 127.434 396.905 191.033 2.826 1.413 5.417 3.298 8.008 4.947 3.533 0.236 7.068 0.236 10.6 0.236zM527.303 30.083c3.77 1.649 5.655 2.591 7.303 3.297 123.429 59.359 246.622 118.954 370.287 178.076 5.417 2.593 6.83 5.89 6.83 11.307-0.236 144.628 0 289.257-0.236 433.65 0 2.826-0.236 5.419-0.471 8.952-3.533-1.649-6.359-2.826-8.95-4.004-34.628-16.726-69.253-33.686-104.114-49.938-6.359-3.062-8.952-6.359-8.952-13.662 0.471-48.288 0-96.34 0.236-144.628 0-9.894-3.533-15.782-12.247-20.021-30.151-14.133-59.83-28.738-89.745-43.106-15.546-7.303-23.556-2.355-23.556 15.075 0 48.523 0 97.047 0 145.57 0 5.655-1.649 8.716-7.066 11.307-128.377 61.714-256.752 123.664-385.362 185.379-3.535 1.649-9.187 1.413-12.72-0.471-39.338-18.608-78.439-37.452-117.54-56.297-1.884-0.942-3.769-2.12-6.36-3.533 3.298-1.649 5.653-3.062 8.009-4.004 89.98-43.342 179.961-86.684 269.942-130.259 3.062-1.415 6.359-2.828 9.421-4.948 6.126-4.004 7.303-9.892 4.712-16.253-2.591-6.124-8.010-8.479-14.604-7.301-3.768 0.707-7.068 2.591-10.6 4.239-85.504 41.222-171.010 82.442-256.515 123.664-9.187 4.475-18.373 8.716-28.502 13.662 0-3.768 0-6.361 0-8.952 0-144.628 0-289.255-0.236-433.65 0-6.83 2.591-9.658 8.244-12.249 116.599-56.060 232.96-112.122 349.559-168.184 8.479-4.004 16.724-8.008 26.618-12.718 0 4.946 0 8.243 0 11.776 0 65.014 0 129.79 0 194.802 0 78.438 0 156.877 0.236 235.315 0 6.832-1.884 10.6-8.481 13.191-8.714 3.533-17.195 7.774-25.44 12.014-7.772 4.004-10.598 11.307-7.301 18.137 3.297 6.832 10.6 9.187 18.844 5.417 9.423-4.239 18.844-8.479 27.795-13.425 5.652-3.064 10.129-2.593 15.546 0.236 26.382 12.954 52.998 25.674 79.38 38.394 2.591 1.178 5.181 2.591 8.010 3.533 6.83 2.12 12.483-0.471 15.546-6.83 3.062-6.361 1.413-12.014-4.241-16.488-2.12-1.649-4.71-2.591-7.066-3.768-25.676-12.485-51.114-25.205-77.025-36.983-7.303-3.297-9.423-7.537-9.423-15.311 0.236-142.744 0.236-285.723 0.236-428.468 0-3.062 0-6.359 0-11.54zM404.816 817.766c4.241-2.355 7.303-4.004 10.365-5.418 120.838-58.18 241.912-116.598 362.75-175.015 4.71-2.355 8.479-2.355 12.954 0 32.272 15.782 64.543 31.093 96.813 46.875 1.649 0.942 3.297 2.12 5.181 3.297-1.178 0.707-1.884 1.413-2.826 1.649-123.9 59.595-247.564 119.425-371.7 179.020-2.826 1.413-7.539 0.707-10.365-0.707-26.853-12.72-53.469-25.675-80.323-38.395-7.068-3.533-14.369-7.067-22.85-11.307zM753.668 619.667c-4.946 2.355-7.772 4.004-10.6 5.417-46.168 22.143-92.101 44.284-138.269 66.662-74.433 35.803-148.632 71.842-223.302 107.41-3.297 1.649-8.481 2.827-11.307 1.413-24.261-11.071-48.288-23.084-73.021-35.097 2.122-1.178 3.535-2.355 4.948-3.062 122.722-59.124 245.68-118.483 368.402-177.605 2.355-1.178 5.888-1.886 8.008-0.942 24.969 11.54 49.23 23.319 75.141 35.803zM690.776 422.040c2.12 0.707 3.533 1.178 4.71 1.649 20.73 9.894 41.222 20.021 61.95 29.68 5.183 2.355 5.419 5.888 5.419 10.365 0 40.749 0 81.736 0 122.487 0 2.12-0.236 4.475-0.471 7.537-3.535-1.413-6.126-2.591-8.716-3.768-18.608-8.952-36.981-18.137-55.591-26.618-5.888-2.591-8.008-5.888-8.008-12.485 0.236-40.042 0.236-79.852 0.236-119.894 0-2.593 0.236-5.419 0.471-8.952zM288.688 293.663c-0.471-13.662-10.365-18.844-20.965-13.898-25.203 12.014-50.172 24.263-75.376 36.274-12.013 5.655-23.791 11.307-35.804 17.197-8.951 4.475-12.013 11.069-8.951 18.137 3.533 7.772 10.835 10.127 20.022 5.652 36.982-17.666 74.2-35.332 110.945-53.705 5.181-2.357 8.243-7.539 10.129-9.658zM222.251 239.964c-4.948 1.884-7.774 2.591-10.365 3.768-18.609 8.95-36.982 17.666-55.354 26.618-8.951 4.239-11.778 11.069-8.48 18.373 3.533 7.537 10.835 9.656 20.022 5.417 19.080-8.952 38.16-18.137 57.004-27.56 6.595-3.297 10.129-8.95 7.301-15.782-1.884-4.239-6.83-7.537-10.127-10.834z" />
<glyph unicode="&#xe90a;" glyph-name="icon-2" d="M61.44 460.1c6.348 21.862 22.099 31.736 43.492 35.498 12.93 2.351 12.695 3.056 12.93 16.222 3.291 171.147 121.778 323.956 286.577 369.799 207.116 57.362 417.759-56.187 483.584-261.188 11.051-34.322 16.458-69.587 17.633-105.32 0.233-5.173 0-10.58 0-16.222 7.287-1.88 14.105-3.527 20.922-5.407 24.216-6.113 35.734-20.453 35.734-45.373 0-30.091 0-60.418 0-90.509 0-22.569-11.989-37.616-33.618-43.258-7.287-1.88-17.162-1.88-21.158-6.582s-2.587-14.34-3.291-21.864c-14.811-130.71-122.954-235.561-254.37-246.61-13.165-1.176-26.331-1.411-37.38-1.882-6.582-10.344-11.52-20.922-19.042-28.916-5.878-6.113-15.516-8.698-23.509-12.931-19.982 0-39.965 0-59.949 0-3.056 1.176-5.876 2.351-8.933 3.527-21.862 8.7-34.087 31.033-29.856 54.778 3.996 21.393 23.745 38.085 46.313 38.554 14.34 0.236 28.68 0.236 43.020 0 17.869-0.233 31.269-7.993 41.378-22.569 1.88-2.585 5.642-5.407 8.462-5.407 111.434-3.996 208.996 58.069 249.903 159.627 7.053 17.162 11.284 35.5 16.691 53.602-9.402 0-16.927 0-24.449 0-26.8 0.233-43.962 17.396-43.962 44.196 0 54.778 0 109.789 0 164.565 0 25.625 16.456 42.551 41.847 43.493 8.698 0.469 17.396 0 26.096 0-2.351 145.285-129.067 328.658-346.526 339.472-216.521 10.814-374.973-161.509-383.906-339.472 8.228 0 16.691 0.233 24.92 0 27.036-0.707 43.492-17.633 43.728-44.669 0-54.54 0-109.083 0-163.623 0-26.802-17.162-43.962-44.198-43.962-6.112 0-12.225 0-18.337 0.94-12.46 1.645-23.039 7.993-27.741 19.278-4.467 10.344-11.754 13.165-21.393 14.576-20.923 3.291-35.734 14.105-41.611 35.029 0 37.378 0 74.994 0 112.609zM117.862 471.149c-7.288-1.647-13.165-2.822-19.043-4.702-6.818-2.116-10.814-7.053-10.814-14.34 0-32.209-0.47-64.416 0.235-96.623 0-4.702 4.702-11.051 8.933-13.636 5.642-3.527 13.165-3.998 20.688-5.878 0 22.098 0 42.787 0 63.474 0 11.051 4.702 16.927 13.165 16.927s13.165-5.876 13.165-16.927c0-25.86 0-51.485 0-77.345 0-12.694 5.407-18.102 18.337-18.336 3.526 0 7.053-0.236 10.579 0 9.639 0.705 15.046 6.347 15.046 15.985 0.235 55.953 0.235 111.905 0 167.856 0 8.933-4.937 14.34-13.87 15.282-4.702 0.469-9.404 0.469-14.106 0.233-10.579-0.705-15.986-6.111-16.221-16.927-0.235-8.227 0-16.456 0-24.685-0.235-9.169-4.937-14.576-12.695-14.811-7.993-0.233-13.165 5.409-13.635 15.047 0.235 2.822 0.235 5.407 0.235 9.404zM906.596 471.149c-0.236-3.527-0.236-6.349-0.471-8.933-0.236-9.64-5.171-15.282-13.165-15.282s-12.931 5.642-13.165 15.282c-0.236 7.993 0 15.751 0 23.745-0.236 11.049-5.409 16.691-16.693 17.16-4.467 0.236-8.933 0.236-13.165-0.233-8.933-0.942-14.105-6.113-14.105-15.047-0.236-56.187-0.236-112.609 0.236-168.796 0-4.467 3.996-11.989 7.051-12.696 9.404-1.645 19.749-2.585 28.918-0.236 8.462 2.118 7.758 11.756 7.758 19.513 0 25.156 0 50.309 0 75.7 0 9.169 4.936 14.576 12.694 14.811 7.993 0.233 13.4-5.409 13.636-14.811 0.236-4.467 0-8.698 0-13.165 0-17.162 0-34.324 0-52.427 7.053 1.647 13.167 2.822 19.042 4.702 7.289 2.351 11.049 7.522 11.049 15.28 0 31.973 0 63.947 0 95.918 0 6.818-3.291 11.989-9.638 14.34-6.347 2.116-12.929 3.527-19.982 5.173zM540.793 65.849c-7.522 0-15.28 0.236-22.804 0-11.989-0.705-20.687-9.873-20.922-21.629 0-11.753 8.698-21.629 20.453-22.098 14.809-0.471 29.856-0.471 44.667 0 11.989 0.469 20.922 10.109 20.922 21.629 0 11.989-9.167 21.627-21.627 22.098-6.584 0.236-13.636 0-20.689 0z" />
<glyph unicode="&#xe90b;" glyph-name="icon-3" d="M861.359 370.614c-25.62-15.163-49.411-28.758-72.156-43.659-12.549-8.106-22.484-7.845-34.772 0-27.973 17.777-57.254 33.724-85.229 51.764-61.438 39.476-92.811 96.208-94.118 169.151-0.783 59.607-0.261 119.477-0.261 179.084 0 13.334 3.138 17.777 15.687 22.746 56.732 22.745 113.463 45.752 170.719 67.713 6.275 2.353 15.163 2.353 21.175 0 56.995-22.222 113.726-45.229 170.721-67.713 9.411-3.659 15.424-9.412 15.424-20.131-0.261-65.881 1.046-131.765-1.307-197.646-1.831-52.027-25.359-95.686-63.53-130.982-4.706-4.443-6.797-8.626-6.797-14.9 0.261-70.066 0.261-140.131 0-210.458 0-43.661-27.19-70.851-70.851-70.851-226.928 0-453.855 0-681.045 0-44.183 0-71.373 26.929-71.373 71.373 0 155.295 0 310.589 0 465.621 0 44.707 26.667 71.373 71.111 71.373 123.399 0 246.536 0 369.934 0 3.66 0 7.321 0.261 10.72-0.522 8.104-1.831 13.856-9.413 13.332-18.040-0.261-8.365-6.536-15.424-15.163-16.731-3.66-0.522-7.058-0.261-10.718-0.261-122.354 0-244.706 0-366.798 0-25.621 0-36.34-10.457-36.34-36.079 0-11.764 0-23.267 0-35.816 4.967 0 8.889 0 12.81 0 129.673 0 259.609 0 389.281 0 3.66 0 7.321 0.261 10.718-0.263 9.152-0.783 15.687-7.582 16.209-16.47 0.524-9.15-6.011-17.253-15.163-18.561-3.397-0.524-7.058-0.263-10.718-0.263-130.197 0-260.132 0-390.328 0-3.922 0-7.582 0-12.549 0 0-4.443 0-7.843 0-11.242 0-127.58 0-254.902 0-382.482 0-25.098 10.458-35.557 35.556-35.557 226.667 0 453.333 0 680 0 24.837 0 35.816 10.981 35.816 35.818 0 60.653 0 121.306 0 181.961 0 3.136 0 6.275 0 12.025zM932.47 622.379c0 29.804 0 59.346 0.261 89.15 0 5.752-1.568 8.628-7.058 10.981-49.413 19.607-98.563 39.477-147.974 58.823-3.138 1.307-7.845 1.569-10.981 0.261-49.935-19.608-99.87-39.739-149.542-59.869-2.875-1.046-6.013-6.013-6.013-8.889-0.261-56.732-1.046-113.463 0-170.197 1.307-55.947 26.666-100.129 73.465-130.719 26.666-17.516 54.378-33.202 82.091-49.411 2.614-1.568 7.582-1.568 10.196 0 27.19 15.948 54.902 31.634 81.308 48.889 47.321 31.112 72.68 75.555 74.248 132.548 0.524 25.622 0 52.027 0 78.432zM270.238 212.444c-23.267 0-46.275-0.261-69.542 0-15.425 0.261-24.314 14.641-16.993 26.929 4.444 7.321 11.503 8.628 19.347 8.628 43.137 0 86.012 0 129.148 0 2.616 0 5.23 0 7.845 0 12.288-0.263 20.131-7.582 20.131-18.040-0.261-10.457-8.367-17.516-20.392-17.777-19.609-0.261-39.217 0-58.563 0-3.921 0.261-7.321 0.261-10.981 0.261zM749.462 560.156c2.353 4.184 3.66 7.845 6.275 10.459 23.791 24.052 47.843 48.104 71.895 72.156 9.674 9.674 20.653 10.72 28.236 2.877 7.843-8.106 6.797-18.301-3.138-28.236-29.804-29.804-59.346-59.607-89.15-89.15-11.242-11.242-19.87-11.242-31.112-0.261-14.378 14.117-28.758 28.497-42.875 42.875-9.413 9.413-9.935 19.609-1.829 27.451 7.843 7.582 17.777 6.797 26.927-2.092 10.72-11.242 21.438-22.221 34.772-36.079z" />
<glyph unicode="&#xe90c;" glyph-name="icon-4" d="M152.905-53.961c-6.524 2.608-13.57 4.435-19.833 7.829-20.616 10.961-32.62 28.184-35.23 51.67-0.522 4.437-0.783 9.134-0.783 13.571 0 284.449 0 569.157 0 853.607 0 20.355 4.697 38.622 19.311 53.497 12.787 12.787 28.184 19.833 46.19 19.833 151.358 0 302.715 0.261 454.074 0 36.274 0 64.719-28.967 65.502-65.241 0.261-7.829 0.261-15.658 0-23.487-0.522-8.873-7.048-15.397-15.398-15.919-8.612-0.522-16.44 5.741-17.484 15.136-0.783 7.829-0.261 15.658-0.261 23.487-0.522 17.484-13.047 31.837-30.009 32.62-22.183 1.044-44.104 0.261-67.068 0.261-2.871-10.96-5.479-21.399-8.351-32.098-8.351-31.316-33.141-50.888-65.502-51.149-58.976-0.261-117.955-0.261-176.672 0-14.091 0-26.879 3.914-38.621 12.004-9.395 6.524-11.744 16.441-6.264 24.269 5.22 7.829 14.354 8.612 24.271 4.176 8.090-3.653 17.223-6.785 25.835-7.046 55.324-0.522 110.648-0.261 165.972-0.261 23.747 0 34.447 8.351 40.187 31.315 1.566 6.002 2.871 12.004 4.698 18.789-4.437 0-8.090 0-11.483 0-111.692 0-223.383 0-335.075 0-28.184 0-40.188-12.004-40.188-40.449 0-284.189 0-568.375 0-852.563 0-28.445 12.004-40.45 40.188-40.45 146.139 0 292.278 0 438.417 0 27.662 0 39.926 12.266 39.926 39.928 0 21.398-0.522 43.058 0.522 64.458 0.261 5.479 4.437 12.525 8.873 15.657 3.654 2.61 12.266 2.088 15.92-0.783 4.174-3.132 7.307-9.917 7.568-15.396 0.783-23.488 0.522-46.973 0.261-70.2-0.261-31.314-19.311-55.844-49.584-64.717-1.827-0.522-3.393-1.305-5.218-2.088-158.144-0.261-316.287-0.261-474.691-0.261zM477.551 151.938c5.74-5.22 9.917-9.134 13.832-13.049 7.046-7.307 7.568-16.962 1.564-23.747-6.001-6.785-16.179-7.568-23.747-1.044-15.918 13.832-31.577 28.184-46.973 42.797-8.090 7.829-8.090 17.223 0.261 24.793 15.396 14.613 31.055 28.704 46.973 42.797 7.829 6.785 17.223 5.74 23.486-1.305 5.742-6.523 5.481-15.918-1.044-22.964-4.174-4.437-8.873-8.353-14.352-13.832 57.934 0 114.041 0 171.191 0 0.261 3.915 0.522 7.307 0.522 10.7 0 21.139 0 42.275 0 63.414 0 15.918 3.393 20.094 18.528 23.747 86.118 20.617 146.661 95.774 148.227 184.24 1.566 86.901-56.368 163.884-141.181 187.633-113.517 31.575-229.123-48.018-240.867-165.711-9.395-94.73 49.582-179.804 141.702-204.595 1.566-0.522 3.132-0.783 4.698-1.305 9.917-3.391 14.352-10.959 12.264-20.354-2.086-8.873-10.437-13.832-20.615-11.744-31.577 7.046-60.545 20.356-85.335 40.97-74.636 62.111-103.864 141.443-78.81 235.389 24.53 92.379 88.466 146.92 182.413 164.406 18.528 3.391 38.101 2.347 59.237 3.391 0 2.349-0.261 6.264 0 10.439 0.522 10.7 7.307 18.006 16.701 18.006s16.181-7.307 16.442-18.006c0.261-5.74 0-11.744 0-18.267 3.913-1.305 7.829-2.871 11.742-4.174 92.903-30.533 155.795-117.696 155.012-214.512-0.522-97.599-63.675-183.979-156.578-213.468-8.612-2.608-10.959-6.262-10.698-14.874 0.783-16.44 0.261-32.88 0.261-52.714 22.703 8.351 43.841 14.613 63.675 23.747 109.082 51.411 173.018 164.406 162.318 284.71-12.005 134.656-122.914 245.826-257.309 256.787-98.121 8.090-179.802-25.835-245.043-99.687-1.566-1.827-2.871-3.654-4.437-5.22-6.785-6.785-16.179-7.568-22.964-2.086-7.046 5.74-8.873 15.918-2.088 23.486 11.744 13.31 23.488 27.14 37.057 38.623 93.947 79.071 200.941 101.775 316.547 60.804 115.347-40.97 186.067-125.523 207.727-246.348 31.053-174.062-88.207-340.295-262.007-367.435-30.009-4.696-60.804-4.174-91.337-4.696-32.097-0.783-64.458 0-96.555 0-2.871 0.522-5.74 0.261-10.439 0.261zM641.968 379.496c-1.827-21.659-5.481-28.184-17.223-27.923-11.222 0-14.876 6.264-16.962 26.618-12.788 8.612-24.793 15.137-34.971 23.749-9.134 7.568-8.612 19.050-1.303 25.574 7.568 6.785 16.179 5.74 25.052-2.61 13.308-13.047 34.708-15.396 50.365-5.218 6.264 4.174 12.266 9.917 9.395 17.484-1.825 5.218-7.568 10.961-12.525 12.786-13.049 4.437-27.14 6.787-40.45 10.439-19.572 5.481-36.535 14.354-42.014 36.274-6.787 26.879 7.829 52.194 36.535 62.631 7.829 2.871 11.481 5.742 10.7 14.615-0.783 11.744 6.262 18.789 16.179 19.050 10.439 0.261 17.223-7.046 16.701-19.311-0.261-7.568 2.088-10.7 9.395-13.832 9.917-4.435 19.311-10.698 27.14-18.006 8.351-7.307 7.568-17.484 0.783-24.269-7.046-7.046-16.701-6.262-25.052 1.827-13.049 12.525-33.143 15.657-48.54 7.046-7.046-3.913-12.788-9.134-12.005-18.267 0.783-8.612 7.307-12.005 14.354-13.83 11.481-3.132 23.486-5.481 34.969-8.612 6.001-1.566 12.005-3.393 17.484-5.742 35.23-15.396 41.492-58.193 11.744-82.464-8.612-7.829-19.311-12.264-29.75-18.006zM389.060 49.901c14.093 0 27.923 0.261 42.016 0 10.959-0.261 18.006-6.785 18.267-16.179 0.259-9.656-7.309-16.962-18.528-17.223-27.923-0.261-55.846-0.261-84.030 0-11.483 0-18.528 7.307-18.267 17.223 0.261 9.656 7.046 15.657 18.267 15.918 14.352 0.522 28.184 0.261 42.275 0.261z" />
<glyph unicode="&#xe90d;" glyph-name="love" d="M751.998 890.182c-109.084 0-190.031-66.994-239.998-162.030-49.962 95.030-130.908 162.030-240 162.030-157.218 0-272-132.030-272-293.030 0-212.914 203.144-346.584 492.246-599.544 11.311-9.9 28.197-9.896 39.508 0 288.838 252.733 492.246 386.607 492.246 599.544 0 161.026-114.8 293.030-272.002 293.030zM512 59.978c-266.244 231.27-452 359.745-452 537.173 0 132.848 91.14 233.030 212 233.030 116.504 0 188.702-107.894 211.086-187.992 8.071-29.22 49.659-29.35 57.828 0 22.086 79.036 93.449 187.992 211.084 187.992 120.865 0 212.001-100.182 212.001-233.030 0-177.53-186.056-306.168-451.998-537.173z" />
<glyph unicode="&#xe90e;" glyph-name="love-bold" d="M0 599.397c0 163.427 117.042 300.094 279.741 300.094 103.155 0 181.176-57.844 232.259-140.070 51.085 82.231 129.107 140.070 232.259 140.070 162.68 0 279.741-136.64 279.741-300.094 0-109.163-52.475-196.968-137.896-287.029-58.693-61.88-134.469-126.307-221.525-200.325l-0.005-0.003-0.024-0.021c-38.784-32.973-79.805-67.853-122.555-105.259-17.173-15.021-42.811-15.027-59.989 0-42.781 37.435-83.827 72.333-122.624 105.32l-0.016 0.013-0.003 0.005-0.003 0.003c-87.109 74.064-162.883 138.493-221.56 200.36-85.394 90.040-137.8 177.789-137.8 286.936zM279.741 808.394c-106.404 0-188.645-88.051-188.645-208.997 0-79.408 41.323-149.451 117.499-228.957 54.551-56.936 125.207-117.013 208.333-187.691 30.112-25.603 61.861-52.597 95.072-81.339 33.237 28.763 65.013 55.776 95.157 81.403l0.008 0.008c82.992 70.557 153.592 130.579 208.131 187.488 76.216 79.528 117.608 149.632 117.608 229.088 0 120.946-82.243 208.997-188.645 208.997-51.339 0-92.981-23.647-124.848-57.148-32.045-33.694-53.451-76.678-63.52-112.707-12.413-44.536-75.507-44.344-87.787 0.021-6.627 23.704-18.085 50.139-34.109 74.955-8.648 13.391-18.624 26.311-29.888 38.077-31.971 33.394-73.557 56.802-124.365 56.802z" />
<glyph unicode="&#xe90f;" glyph-name="menu" d="M1024 209.056h-1024v-119.456h1024v119.456zM1024 507.727h-1024v-119.46h1024v119.46zM1024 806.399h-1024v-119.46h1024v119.46z" />
<glyph unicode="&#xe910;" glyph-name="menu-2" d="M832 222.4h-640v-128h640v128zM1024 501.328h-1024v-119.46h1024v119.46zM1024 800h-1024v-119.46h1024v119.46z" />
<glyph unicode="&#xe911;" glyph-name="minus" d="M1024 384h-1024v128h1024v-128z" />
<glyph unicode="&#xe912;" glyph-name="plus" d="M576 960v-1024h-128v1024h128zM1024 384h-1024v128h1024v-128z" />
<glyph unicode="&#xe913;" glyph-name="refresh" d="M722.688 703.159c-5.336 0-8.533 0-11.736 0-174.922 0-349.846 0-524.77 0-13.599 0-26.665-1.867-37.598-10.666-13.599-10.933-18.132-25.599-18.132-42.398 0-75.729 0-151.725 0-227.454 0-25.866-13.333-43.732-36.265-49.864-35.998-9.335-65.597 12.8-65.597 49.864-0.267 76.262-0.267 152.259 0 228.522 0.267 89.329 65.064 153.858 154.658 154.125 175.191 0.266 350.648 0 525.838 0 3.738 0 7.737 0 11.469 0 1.064 1.6 2.133 2.933 3.197 4.533-3.197 1.6-7.196 2.666-9.597 5.067-21.066 20.799-42.132 41.598-62.663 62.93-22.135 23.199-19.2 56.797 6.667 75.729 4.267 2.933 10.132 4.266 15.462 5.333 28.001 4.8 48.265-6.133 67.732-26.932 43.998-46.931 90.664-91.728 136.26-137.326 26.396-26.399 26.396-53.597 0.267-79.996-50.933-50.93-101.865-102.128-153.060-153.058-25.6-25.599-63.733-20.532-81.328 10.132-11.469 19.732-8.266 42.664 8.795 60.264 20.27 21.066 41.335 41.331 61.867 62.13 2.401 2.4 4.801 4.8 8.533 9.066zM304.535 192.842c5.333 0 8.533 0 11.733 0 174.924 0 349.85 0 524.772 0 13.602 0 26.664 1.866 37.598 10.667 13.602 10.934 18.136 25.6 18.136 42.399 0 75.725 0 151.723 0 227.452 0 25.866 13.329 43.731 36.261 49.864 35.999 9.333 65.599-12.799 65.599-49.864 0.267-76.262 0.267-152.256 0-228.522-0.267-89.327-65.064-153.856-154.658-154.123-175.189-0.267-350.649 0-525.84 0-3.733 0-7.733 0-11.466 0-1.067-1.604-2.133-2.935-3.2-4.534 3.2-1.599 7.2-2.668 9.599-5.069 21.066-20.799 42.131-41.597 62.664-62.93 22.132-23.199 19.199-56.792-6.666-75.725-4.267-2.935-10.133-4.267-15.466-5.336-27.999-4.801-48.265 6.133-67.73 26.931-43.997 46.933-90.662 91.728-136.259 137.33-26.399 26.396-26.399 53.595-0.267 79.991 50.931 50.933 101.861 102.133 153.058 153.060 25.599 25.6 63.73 20.531 81.329-10.132 11.466-19.729 8.266-42.667-8.8-60.262-20.266-21.066-41.331-41.33-61.864-62.128-2.4-2.401-4.8-4.801-8.533-9.068z" />
<glyph unicode="&#xe914;" glyph-name="search" d="M1011.462 8.727l-246.181 246.175c61.025 74.399 97.803 169.692 97.803 273.555 0 238.237-193.303 431.543-431.541 431.543-238.446 0-431.543-193.306-431.543-431.543 0-238.238 193.097-431.541 431.543-431.541 103.863 0 198.951 36.568 273.344 97.593l246.181-245.97c16.714-16.72 43.674-16.72 60.393 0 16.72 16.509 16.72 43.679 0 60.188zM431.543 182.807c-190.799 0-345.862 155.062-345.862 345.65 0 190.59 155.063 345.862 345.862 345.862 190.588 0 345.861-155.272 345.861-345.862 0-190.588-155.273-345.65-345.861-345.65z" />
<glyph unicode="&#xe915;" glyph-name="size" d="M18.341 939.866c-0.173-1.224-0.232-2.845-0.232-5.217v-291.137c0-1.382 0.052-2.832 0.14-4.351h47.045v223.183l15.424-15.424c28.561-28.561 56.796-56.749 84.767-84.673 53.003-52.914 105.055-104.879 156.573-156.636 3.029 2.964 6.072 5.95 9.156 8.978 8.056 7.909 16.398 16.097 25.52 24.877-79.814 79.813-159.642 159.619-240.656 239.82l-15.614 15.456h219.575v45.901c-0.214 0.015-0.406 0.028-0.585 0.028-99.123 0-198.281 0-297.429 0.418-1.901-0.001-2.978-0.193-3.517-0.341-0.050-0.201-0.11-0.489-0.165-0.884zM3.422 950.904c4.211 6.508 11.39 8.258 18.618 8.258 99.115-0.418 198.272-0.418 297.412-0.418 2.266 0 2.699 0.27 4.32 0 0.383-0.064 3.677 0.059 4.024 0 1.26-0.215 3.841 0.136 5.065 0h5.247v-82.071h-193.716c77.909-77.219 154.781-154.091 231.636-230.946l6.551-6.551-6.696-6.386c-11.717-11.172-21.955-21.222-31.872-30.958-5.283-5.186-10.474-10.283-15.751-15.412l-6.404-6.227-6.299 6.333c-53.556 53.834-107.657 107.843-162.81 162.904-22.933 22.895-46.049 45.972-69.383 69.293v-197.632h-83.090l-0.007 7.615c-0.404 4.447-0.229 10.211-0.229 14.806v291.137c0 2.439 0.045 5.158 0.409 7.738 0.366 2.596 1.128 5.662 2.976 8.517zM18.109 934.649c0 2.371 0.059 3.992 0.232 5.217 0.056 0.395 0.115 0.683 0.165 0.884 0.539 0.148 1.616 0.34 3.517 0.341 99.148-0.418 198.307-0.418 297.429-0.418 0.18 0 0.371-0.013 0.585-0.028v-45.901h-219.575l15.614-15.456c81.015-80.2 160.843-160.007 240.656-239.82-9.122-8.78-17.464-16.968-25.52-24.877l-9.156-8.978c-51.517 51.757-103.57 103.722-156.573 156.636-27.97 27.924-56.206 56.112-84.767 84.673l-15.424 15.424v-223.183h-47.045c-0.088 1.519-0.14 2.968-0.14 4.351v291.137zM966.132 940.704c0.169-1.224 0.229-2.845 0.229-5.217v-291.137c0-1.382-0.048-2.832-0.139-4.35h-47.044v223.183l-15.426-15.424c-28.558-28.561-56.796-56.749-84.763-84.673-53.007-52.913-105.056-104.879-156.576-156.635-3.030 2.963-6.072 5.95-9.156 8.978-8.053 7.908-16.396 16.097-25.522 24.877 79.818 79.813 159.642 159.62 240.658 239.82l15.613 15.456h-219.576v45.901c0.217 0.015 0.41 0.028 0.584 0.028 99.123 0 198.283 0 297.43 0.418 1.903-0.001 2.982-0.193 3.518-0.341 0.054-0.201 0.108-0.489 0.169-0.884zM981.046 951.742c-4.21 6.508-11.39 8.258-18.619 8.258-99.111-0.418-198.27-0.418-297.412-0.418-2.265 0-2.699 0.27-4.319 0-0.379-0.064-3.674 0.059-4.024 0-1.259-0.215-3.837 0.136-5.066 0h-5.246v-82.070h193.717c-77.908-77.22-154.781-154.092-231.635-230.947l-6.552-6.551 6.697-6.385c11.716-11.172 21.956-21.222 31.87-30.958 5.283-5.186 10.475-10.283 15.752-15.413l6.403-6.226 6.301 6.332c53.555 53.834 107.659 107.843 162.81 162.905 22.932 22.895 46.050 45.972 69.385 69.293v-197.632h83.089l0.006 7.615c0.404 4.447 0.229 10.21 0.229 14.806v291.137c0 2.439-0.042 5.158-0.41 7.738-0.361 2.596-1.126 5.662-2.976 8.517zM966.361 935.488c0 2.371-0.060 3.992-0.229 5.217-0.060 0.395-0.114 0.683-0.169 0.884-0.536 0.148-1.614 0.34-3.518 0.341-99.147-0.418-198.307-0.418-297.43-0.418-0.175 0-0.367-0.013-0.584-0.028v-45.901h219.576l-15.613-15.456c-81.016-80.2-160.84-160.007-240.658-239.82 9.126-8.78 17.468-16.968 25.522-24.877l9.156-8.978c51.519 51.757 103.569 103.722 156.576 156.635 27.967 27.924 56.206 56.112 84.763 84.673l15.426 15.424v-223.183h47.044c0.090 1.519 0.139 2.968 0.139 4.35v291.137zM18.341-2.024c-0.173 1.223-0.232 2.843-0.232 5.216v291.135c0 1.385 0.052 2.831 0.14 4.355h47.045v-223.184l15.424 15.42c28.561 28.564 56.796 56.754 84.767 84.673 53.003 52.917 105.055 104.882 156.573 156.636 3.029-2.964 6.072-5.951 9.156-8.975 8.056-7.909 16.398-16.101 25.52-24.877-79.814-79.812-159.642-159.618-240.656-239.821l-15.614-15.456h219.575v-45.899c-0.214-0.018-0.406-0.030-0.585-0.030-99.123 0-198.281 0-297.429-0.416-1.901 0-2.978 0.193-3.517 0.337-0.050 0.205-0.11 0.488-0.165 0.885zM3.422-13.065c4.211-6.505 11.39-8.252 18.618-8.252 99.115 0.416 198.272 0.416 297.412 0.416 2.266 0 2.699-0.271 4.32 0 0.383 0.066 3.677-0.060 4.024 0 1.26 0.217 3.841-0.139 5.065 0h5.247v82.071h-193.716c77.909 77.222 154.781 154.094 231.636 230.948l6.551 6.548-6.696 6.385c-11.717 11.174-21.955 21.227-31.872 30.961-5.283 5.186-10.474 10.282-15.751 15.414l-6.404 6.224-6.299-6.333c-53.556-53.832-107.657-107.845-162.81-162.906-22.933-22.895-46.049-45.972-69.383-69.289v197.632h-83.090l-0.007-7.62c-0.404-4.445-0.229-10.21-0.229-14.806v-291.135c0-2.44 0.045-5.156 0.409-7.74 0.366-2.596 1.128-5.662 2.976-8.517zM18.109 3.192c0-2.373 0.059-3.994 0.232-5.216 0.056-0.398 0.115-0.681 0.165-0.885 0.539-0.145 1.616-0.337 3.517-0.337 99.148 0.416 198.307 0.416 297.429 0.416 0.18 0 0.371 0.012 0.585 0.030v45.899h-219.575l15.614 15.456c81.015 80.203 160.843 160.009 240.656 239.821-9.122 8.776-17.464 16.968-25.52 24.877l-9.156 8.975c-51.517-51.754-103.57-103.719-156.573-156.636-27.97-27.919-56.206-56.109-84.767-84.673l-15.424-15.42v223.184h-47.045c-0.088-1.524-0.14-2.97-0.14-4.355v-291.135zM966.132-2.861c0.169 1.223 0.229 2.843 0.229 5.216v291.135c0 1.385-0.048 2.831-0.139 4.349h-47.044v-223.178l-15.426 15.42c-28.558 28.564-56.796 56.748-84.763 84.673-53.007 52.917-105.056 104.882-156.576 156.636-3.030-2.964-6.072-5.951-9.156-8.975-8.053-7.909-16.396-16.101-25.522-24.877 79.818-79.818 159.642-159.624 240.658-239.821l15.613-15.456h-219.576v-45.899c0.217-0.018 0.41-0.030 0.584-0.030 99.123 0 198.283 0 297.43-0.422 1.903 0.006 2.982 0.193 3.518 0.343 0.054 0.199 0.108 0.488 0.169 0.885zM981.046-13.902c-4.21-6.505-11.39-8.258-18.619-8.258-99.111 0.422-198.27 0.422-297.412 0.422-2.265 0-2.699-0.271-4.319 0-0.379 0.060-3.674-0.060-4.024 0-1.259 0.217-3.837-0.139-5.066 0h-5.246v82.071h193.717c-77.908 77.216-154.781 154.088-231.635 230.948l-6.552 6.548 6.697 6.385c11.716 11.174 21.956 21.221 31.87 30.961 5.283 5.186 10.475 10.282 15.752 15.408l6.403 6.228 6.301-6.331c53.555-53.832 107.659-107.845 162.81-162.906 22.932-22.895 46.050-45.972 69.385-69.295v197.632h83.089l0.006-7.614c0.404-4.445 0.229-10.21 0.229-14.806v-291.135c0-2.44-0.042-5.156-0.41-7.74-0.361-2.596-1.126-5.662-2.976-8.517zM966.361 2.355c0-2.373-0.060-3.994-0.229-5.216-0.060-0.398-0.114-0.687-0.169-0.885-0.536-0.151-1.614-0.337-3.518-0.343-99.147 0.422-198.307 0.422-297.43 0.422-0.175 0-0.367 0.012-0.584 0.030v45.899h219.576l-15.613 15.456c-81.016 80.197-160.84 160.003-240.658 239.821 9.126 8.776 17.468 16.968 25.522 24.877l9.156 8.975c51.519-51.754 103.569-103.719 156.576-156.636 27.967-27.925 56.206-56.109 84.763-84.673l15.426-15.42v223.178h47.044c0.090-1.518 0.139-2.964 0.139-4.349v-291.135z" />
<glyph unicode="&#xe916;" glyph-name="user" d="M824.669 318.487c-48.161 48.161-105.486 83.814-168.029 105.398 66.988 46.136 110.997 123.351 110.997 210.661 0 140.958-114.679 255.636-255.637 255.636s-255.636-114.679-255.636-255.636c0-87.31 44.009-164.525 110.998-210.661-62.545-21.583-119.869-57.237-168.030-105.398-83.517-83.517-129.513-194.56-129.513-312.669h69.091c0 205.722 167.367 373.090 373.091 373.090 205.722 0 373.090-167.368 373.090-373.090h69.092c0 118.109-45.996 229.153-129.513 312.669zM512 448c-102.861 0-186.545 83.683-186.545 186.545s83.685 186.545 186.545 186.545c102.861 0 186.545-83.683 186.545-186.545s-83.684-186.545-186.545-186.545z" />
<glyph unicode="&#xe917;" glyph-name="loading" d="M812.891 844.086c0 20.242 0 37.485 0 54.728 0 25.49 18.744 44.982 42.733 44.982 23.24 0 41.984-19.492 41.984-44.232 0.749-56.978 0.749-113.205 0-170.183 0-25.49-17.992-43.482-43.483-43.482-55.477-0.749-111.707 0-167.184 0-25.491 0-43.483 17.992-43.483 41.983s17.992 41.983 43.483 42.733c20.992 0.75 42.733 0 63.725 0 4.496 0 8.245 0 16.493 0-5.997 5.248-9.747 8.247-13.496 11.246-240.653 172.432-581.77 38.985-640.996-251.9-47.231-229.411 108.707-454.32 339.615-489.557 228.661-35.235 437.829 120.701 471.565 350.861 3.747 24.741 18.741 39.736 41.232 41.235 19.493 1.499 38.987-11.245 41.984-30.739 2.251-13.493 0-27.739-2.248-40.483-34.488-200.923-191.925-361.357-392.845-401.093-266.896-52.48-526.292 119.203-582.52 385.349-57.727 274.392 128.199 546.533 404.091 590.766 133.448 21.741 255.648-7.497 367.355-83.967 3-2.249 6.747-4.498 11.995-8.247z" />
</font>
</defs>
</svg>
